วันอาทิตย์ที่ 11 ตุลาคม พ.ศ. 2558

{ใหม่! ภาพ Bluray + เสียงโรง DTS}[Full HD 8 GB] Southpaw (2015) : สังเวียนเดือด [พากย์ไทยโรง DTS]

ภาพ BLURAY ชัดๆ + เสียงไทยโรง DTS โดยเอาเสียงไทยโรง ผสมกับ SoundTrack DTS (MASTER) โดย NongAoi 

 





    ชีวิต ของ บิลลี่ โฮป (เจค จิลเลนฮาล) นักมวยผู้ยิ่งใหญ่กำลังอยู่บนจุดสูงสุดของอาชีพ แม้ว่า มัวรีน (เรเชล แมคอาดัมส์) ภรรยาที่รักได้เรียกร้องให้เขาลาสังเวียนเพื่อกลับมาดูแลเธอ และเลล่า ลูกสาวของเขา แต่แล้ววันหนึ่ง เขาต้องสูญเสียมัวรีนอย่างไม่มีวันกลับ ซ้ำร้ายเขาต้องสูญเสียสิทธิ์การเลี้ยงดูลูกสาวตามกฎหมายเนื่องจากพฤติกรรม ก้าวร้าวของเขาเอง โลกที่เขาสร้างมากับมือเหมือนพังทลายไปต่อหน้าต่อตา แต่ชีวิตก็ยังมีความหวังที่จะกลับคืนวงการ เขาจึงมุ่งมั่นฝึกฝนโดยมี ไททัส (ฟอเรสท์ วิทเทคเกอร์) เป็นเทรนเนอร์และสู้สุดใจเพื่อชื่อเสียงและทวงศักดิ์ศรีของคนเป็นพ่อให้ได้


General
Format                         : Matroska
File size                      : 8.74 GiB
Duration                       : 2h 3mn
Overall bit rate               : 10.1 Mbps
Movie name                     : Southpaw.2015.1080p.BluRay.DTS-NongAoi

Video
Format                         : AVC
Bit rate                       : 8 603 Kbps
Width                          : 1 920 pixels
Height                         : 800 pixels
Stream size                    : 7.26 GiB (83%)
Title                          : Southpaw.2015.1080p.BluRay.DTS-NongAoi

Audio
Format                         : DTS
Mode                           : 16
Bit rate                       : 1 509 Kbps
Channel(s)                     : 6 channels
Channel positions              : Front: L C R, Side: L R, LFE
Sampling rate                  : 48.0 KHz
Bit depth                      : 24 bits
Stream size                    : 1.30 GiB (15%)
Title                          : ThaiRong DTS by NongAoi
Language                       : Thai
Default                        : Yes
Forced                         : Yes

ไม่มีความคิดเห็น:

โพสต์ความคิดเห็น